Exemplo de curriculum

Disponível somente no TrabalhosFeitos
  • Páginas : 58 (14341 palavras )
  • Download(s) : 0
  • Publicado : 7 de junho de 2011
Ler documento completo
Amostra do texto
neste trabalho aprendi sobre planilhas no excel e margem de lucros numa empresa

Aux. De Produção/ Menor Aprendiz

FORMAÇÃO ACADÊMICA
Ensino Fundamental Completo – Colégio Est.Prof. Ottília Homero da Silva
Ensino Médio – Cursando CEBJA Pinhais

QUALIFICAÇÃO PROFISSIONAL
Março/2004 – Setembro/2004 Informática Básica
Julho/2010 – Curso de Aux. Administrativo e Produção Ind. (Cursando)HABILIDADE PESSOAL
Comunicativo, Pontual, Organizado e Fácil Aprendizagem

EXPERIÊNCIA PROFISSIONAL
Almaq Equipamentos Para Escritório LTDA exerceu a função de Aux. Administrativo no Período de Setembro de 2010 a Novembro de 2010

====== Assembly BrowserHelpersInstaller, ver. 1.0.0.2 started 12/11/2010 ======
7:24:51 AM.465|01|TRC|Enter static void Main()
7:24:51 AM.465|01|TRC|Startprocessing the args, command line: /i youtubetomp3

====== Assembly BrowserHelpersInstaller, ver. 1.0.0.2 started 12/11/2010 ======
7:24:52 AM.032|01|TRC|Enter static void Main()
7:24:52 AM.032|01|TRC|Start processing the args, command line: /i

====== Assembly BrowserHelpersInstaller, ver. 1.0.0.2 started 20/02/2011 ======
10:05:01 AM.298|01|DBG|Enter static void Main()
10:05:01AM.298|01|DBG|Start processing the args, command line: /ff /i

[HVD] ====== Start time: 11/12/2010, 7:25:7
[HVD] Module HVD Log Version = 2,11,28,378
[HVD] OS Info 6 1 0 0

[VC] ====== Start time: 11/12/2010, 7:25:7
[VC] Module VC Log Version = 1,6,13,342
[VC] OS Info 6 1 0 0

[YP] ====== Start time: 11/12/2010, 7:26:1
[YP] Module YP Log Version = 2,11,28,378
[YP] OS Info 6 1 0 0
[YP]GetYoutubeURLType() = 0, http://www.youtube.com/watch?v=j5-yKhDd64s&feature=recentlik
[YP] GetYoutubeURLType() = 0, http://www.youtube.com/watch?v=j5-yKhDd64s&feature=recentlik
[HVD] PreOpen(), http://www.youtube.com/watch?v=j5-yKhDd64s&feature=recentlik
[HVD] PreOpen() = 0, 0
[HVD] Open(), 6, http://www.youtube.com/watch?v=j5-yKhDd64s&feature=recentlik
[HVD] Open() - ok, 112230289,http://www.youtube.com/watch?v=j5-yKhDd64s&feature=recentlik
Saving to file: C:\Users\Evandro\Documents\DVDVideoSoft\Temp\video_download_temp_07_26_23_012.mp3
[HVD] SaveToFilePtr() - ok, 112230289
[VC] [v08.02.2010] In Open(C:\Users\Evandro\Documents\DVDVideoSoft\Temp\video_download_temp_07_26_23_012.mp3)
[VC] FileFormat: mov,mp4,m4a,3gp,3g2,mj2, 258.708333
[VC] Video: h264, 3346413, 1920x1080, 48.000000[VC] Audio: aac, 121631, 44100, 2
[VC] Title: Artist: Album: Year: 0 Track: 0
[VC] Out Open = S_OK
[VC] [v09.06.2010] Save C:\Users\Evandro\Documents\DVDVideoSoft\Temp\video_download_temp_07_43_49_106.mp3

[VC] Input audio and video streams: 1, 1. Extended output audio and video streams: 0, 0
[VC] Extended regime to convert: no

[VC] Try convert into mp3
[VC] Extended regime to convert:no

"C:\Program Files\Common Files\DVDVideoSoft\Dll\ffmpeg.exe" -y -i "C:\Users\Evandro\Documents\DVDVideoSoft\Temp\video_download_temp_07_26_23_012.mp3" -ss 0.00 -vn -ar 48000 -ac 2 -f wav "C:\Users\Evandro\AppData\Local\Temp\dvs458.tmp.wav"
FFmpeg version r21343-www.DVDVideoSoft.com, Copyright (c) 2000-2010 Fabrice Bellard, et al.
built on Feb 2 2010 17:23:32 with gcc 4.2.4
libavutil50. 7. 0 / 50. 7. 0
libavcodec 52.48. 0 / 52.48. 0
libavformat 52.47. 0 / 52.47. 0
libavdevice 52. 2. 0 / 52. 2. 0
libavfilter 1.17. 0 / 1.17. 0
libswscale 0. 8. 0 / 0. 8. 0
libpostproc 51. 2. 0 / 51. 2. 0

Seems stream 1 codec frame rate differs from container frame rate: 48.00 (48/1) -> 24.00 (24/1)
Input #0, mov,mp4,m4a,3gp,3g2,mj2, from'C:\Users\Evandro\Documents\DVDVideoSoft\Temp\video_download_temp_07_26_23_012.mp3':
Metadata:
major_brand : mp42
minor_version : 0
compatible_brands: isomavc1mp42
Duration: 00:04:18.70, start: 0.000000, bitrate: 3470 kb/s
Stream #0.0(und): Audio: aac, 44100 Hz, stereo, s16, 121 kb/s
Stream #0.1(und): Video: h264, yuv420p, 1920x1080 [PAR 1:1 DAR 16:9], 3346 kb/s, 24 fps, 24...
tracking img